Skip to main content

The Moondoggies Live at Turner Hall Ballroom on 2010-11-13




01. Intro --> Ain't No Lord
02. It's a Shame, It's a Pity
03. What Took So Long
04. Black Shoe
05. Uncertain
06. Black Shoe
07. Save My Soul --> Changing
08. Down the Well
09. I Want You To Know


Collection TheMoondoggies
Band/Artist The Moondoggies
Venue Turner Hall Ballroom
Location Milwaukee WI

Source SBD + AUD mix
Lineage WAV > Digital Performer 4 > Audacity > xACT > FLAC8
Taped by morst
Transferred by morst & digitalist0ne

Notes

Moondoggies & Romany Rye opened for Dawes

HD Videos by morst, with good audio from this version:




What Took So Long
video at H264 (37 MB)
P2650074-AudioFixed_000027.jpg
What Took So Long
video in HD (884 MB)
P2650074-AudioFixed.gif


Dawes set - http://www.archive.org/details/Dawes2010-11-13.matrix2448

FoH: Jeremy (Turner Hall)
Recording: morst
Mix: morst & Digitalist0ne
Transfer: morst

SHNTOOL:
length expanded size cdr WAVE problems fmt ratio filename
4:56.390 85360250 B cxx -- ---xx flac 0.6661 Moondoggies2010-11-13t01.flac
5:27.124 94211828 B cxx -- ---xx flac 0.6970 Moondoggies2010-11-13t02.flac
5:55.614 102416780 B cxx -- ---xx flac 0.7041 Moondoggies2010-11-13t03.flac
4:13.524 73014980 B cxx -- ---xx flac 0.6613 Moondoggies2010-11-13t04.flac
5:18.386 91695338 B cxx -- ---xx flac 0.6756 Moondoggies2010-11-13t05.flac
2:36.121 44962976 B cxx -- ---xx flac 0.7254 Moondoggies2010-11-13t06.flac
5:26.054 93903620 B cxx -- ---xx flac 0.7151 Moondoggies2010-11-13t07.flac
5:38.257 97417988 B cxx -- ---xx flac 0.7098 Moondoggies2010-11-13t08.flac
5:15.774 90942878 B cxx -- ---xx flac 0.6776 Moondoggies2010-11-13t09.flac
44:47.244 773926638 B 0.6918 (9 files)

~=~=~=~=~=~=~=~=~=~=~=~=~=~=~=~=~=~=~=~=~=~=~=~=~
The Soundscape Preservation Society (Founded 1991)
http://www.iamtypingwithonefinger.com/SPS.html
~=~=~=~=~=~=~=~=~=~=~=~=~=~=~=~=~=~=~=~=~=~=~=~=~

Reviews

There are no reviews yet. Be the first one to write a review.
PEOPLE ALSO FOUND
The Moondoggies
by The Moondoggies
313
1
0
Source: SBD > XLR adapter > RCA > iRiver h120 (Line-in @ 16bit 44.1kHz WAV)
The Moondoggies
by The Moondoggies
585
1
0
Source: SBD + AUD mix
The Moondoggies
by The Moondoggies
1,299
1
0
Source: SBD + AUD
Camper Van Beethoven
by Camper Van Beethoven
1,831
1
0
Source: SBD
Community Audio
by Indecision
356
1
1
( 1 reviews )
Reason For Leaving
by Reason For Leaving
2,242
1
0
Source: DAUD
Reason For Leaving
by Reason For Leaving
1,042
1
0
Source: Sony MTL-F96 mic (mono) > Sony PCM-M1 > DAT @ 48KHz
Reason For Leaving
by Reason For Leaving
456
1
0
Source: Matrix of SBD + Neumann KM 140's > DAT
The Sound of Urchin
by The Sound of Urchin
361
1
0
Source: SBD + Audience Matrix
The Dangers
by The Dangers
216
1
0
Source: Neumann KM140's (shock-mounted ORTF pair, front-row center, on 4' stand) > Beyer MV100 > Zoom H2 @16-bit/44.1KHz